<?xml version="1.0" standalone="no"?>
<!DOCTYPE svg PUBLIC "-//W3C//DTD SVG 1.1//EN" "http://www.w3.org/Graphics/SVG/1.1/DTD/svg11.dtd" >
<svg>
<metadata>
Created by FontForge 20120731 at Wed Aug 28 13:54:49 2019
 By www
(c) 2017 Microsoft Corporation. All rights reserved.
</metadata>
<defs>
<font id="Bahnschrift" horiz-adv-x="0" >
  <font-face 
    font-family="Bahnschrift"
    font-weight="400"
    font-stretch="normal"
    units-per-em="2048"
    panose-1="2 11 5 2 4 2 4 2 2 3"
    ascent="1626"
    descent="-422"
    x-height="1038"
    cap-height="1454"
    bbox="-780 -433 1943 2014"
    underline-thickness="50"
    underline-position="-75"
    unicode-range="U+0020-2122"
  />
<missing-glyph horiz-adv-x="748" 
d="M68 0v1365h544v-1365h-544zM136 68h408v1229h-408v-1229z" />
    <glyph glyph-name=".notdef" horiz-adv-x="748" 
d="M68 0v1365h544v-1365h-544zM136 68h408v1229h-408v-1229z" />
    <glyph glyph-name=".null" 
 />
    <glyph glyph-name="nonmarkingreturn" horiz-adv-x="682" 
 />
    <glyph glyph-name="space" unicode=" " horiz-adv-x="350" 
 />
    <glyph glyph-name="exclam" unicode="!" horiz-adv-x="464" 
d="M130 373v1081h204v-1081h-204zM130 0v204h204v-204h-204z" />
    <glyph glyph-name="quotedbl" unicode="&#x22;" horiz-adv-x="775" 
d="M130 944v510h204v-510h-204zM441 944v510h204v-510h-204z" />
    <glyph glyph-name="numbersign" unicode="#" horiz-adv-x="1278" 
d="M646 0l248 1454h163l-248 -1454h-163zM222 0l248 1454h163l-248 -1454h-163zM149 1101h1059v-169h-1059v169zM90 522h1059v-169h-1059v169z" />
    <glyph glyph-name="dollar" unicode="$" horiz-adv-x="1181" 
d="M577 -15q-97 0 -183.5 23.5t-162 70t-141.5 116.5v0l137 166v0q144 -174 350 -174q142 0 212 55.5t70 168.5v1q0 78 -37.5 120t-99.5 62t-134 34q-75 15 -152.5 33.5t-142.5 57.5t-104.5 113t-39.5 200v1q0 218 118.5 327t357.5 109q105 0 206.5 -33t200.5 -99v0
l-123 -169v0q-147 99 -284 99q-133 0 -198.5 -54.5t-65.5 -163.5v-1q0 -82 43.5 -124.5t114 -63t150.5 -38.5q72 -16 143 -38.5t130 -65.5t94 -117t35 -193v-2q0 -211 -123.5 -316t-370.5 -105zM494 -177v241h204v-241h-204zM494 1403v228h204v-228h-204z" />
    <glyph glyph-name="percent" unicode="%" horiz-adv-x="1407" 
d="M213 0l790 1454h179l-790 -1454h-179zM1065 -15q-116 0 -179 67.5t-63 188.5v125q0 121 63 188.5t179 67.5t179 -68t63 -190v-123q0 -121 -63.5 -188.5t-178.5 -67.5zM1064 144q76 0 76 87v147q0 84 -76 84q-74 0 -74 -85v-146q0 -87 74 -87zM342 831q-116 0 -179 67.5
t-63 188.5v125q0 121 63 188.5t179 67.5t179 -68t63 -190v-123q0 -121 -63 -188.5t-179 -67.5zM341 990q76 0 76 87v147q0 84 -76 84q-74 0 -74 -85v-146q0 -87 74 -87z" />
    <glyph glyph-name="ampersand" unicode="&#x26;" horiz-adv-x="1335" 
d="M1046 0l-554 578q-105 106 -162.5 230t-57.5 258q0 190 102 295t288 105q185 0 286.5 -100.5t101.5 -284.5v0h-204v0q0 89 -48 137.5t-136 48.5t-137 -52.5t-49 -148.5q0 -88 43 -181.5t121 -177.5l665 -707h-259zM589 639q-125 0 -193 -62t-68 -175q0 -111 72.5 -172.5
t204.5 -61.5q189 0 293 149t104 420h194q0 -239 -75 -407t-217 -256.5t-344 -88.5q-205 0 -317.5 109t-112.5 308q0 178 98 285t277 124z" />
    <glyph glyph-name="quotesingle" unicode="'" horiz-adv-x="364" 
d="M80 944v510h204v-510h-204z" />
    <glyph glyph-name="parenleft" unicode="(" horiz-adv-x="695" 
d="M675 1482q-301 -335 -301 -834q0 -250 75 -458t226 -377l-140 -126q-355 385 -355 961t355 961z" />
    <glyph glyph-name="parenright" unicode=")" horiz-adv-x="695" 
d="M20 1482l140 127q355 -385 355 -961t-355 -961l-140 126q151 169 226 377t75 458q0 499 -301 834z" />
    <glyph glyph-name="asterisk" unicode="*" horiz-adv-x="881" 
d="M601 827l-225 310l129 94l225 -310zM280 827l-129 94l225 310l129 -94zM416 1108l-364 119l49 151l364 -118zM361 1184v383h159v-383h-159zM465 1108l-49 152l364 118l49 -151z" />
    <glyph glyph-name="plus" unicode="+" horiz-adv-x="1082" 
d="M140 767h812v-194h-812v194zM648 1076v-812h-204v812h204z" />
    <glyph glyph-name="comma" unicode="," horiz-adv-x="464" 
d="M130 -202v406h204v-204z" />
    <glyph glyph-name="hyphen" unicode="-" horiz-adv-x="982" 
d="M160 618h672v-194h-672v194z" />
    <glyph glyph-name="period" unicode="." horiz-adv-x="464" 
d="M130 0v204h204v-204h-204z" />
    <glyph glyph-name="slash" unicode="/" horiz-adv-x="775" 
d="M860 1626l-675 -1902h-195l675 1902h195z" />
    <glyph glyph-name="zero" unicode="0" horiz-adv-x="1130" 
d="M565 -18q-208 0 -311.5 111t-103.5 302v664q0 193 105 303t310 110q206 0 310.5 -109.5t104.5 -303.5v-664q0 -193 -105 -303t-310 -110zM565 176q112 0 161.5 58.5t49.5 160.5v664q0 103 -49.5 161t-161.5 58t-161.5 -58t-49.5 -161v-664q0 -102 49.5 -160.5
t161.5 -58.5z" />
    <glyph glyph-name="one" unicode="1" horiz-adv-x="681" 
d="M501 1454v-1454h-204v1232l-207 -127v211l207 138h204z" />
    <glyph glyph-name="two" unicode="2" horiz-adv-x="1058" 
d="M128 0v177l507 676q43 58 68 120t25 117v2q0 88 -51 137t-145 49q-88 0 -143.5 -53t-67.5 -151v-1h-211v1q27 190 137 294t283 104q196 0 303 -100t107 -282v-1q0 -77 -32 -161.5t-89 -161.5l-421 -572h550v-194h-820z" />
    <glyph glyph-name="three" unicode="3" horiz-adv-x="1083" 
d="M526 -18q-184 0 -298.5 96t-137.5 271v1h208v-1q14 -82 74 -126.5t154 -44.5q101 0 157 54t56 152v47q0 109 -53 168.5t-150 59.5h-103v194h103q86 0 132.5 51t46.5 144v48q0 86 -49.5 133t-140.5 47q-77 0 -130.5 -42t-73.5 -119v-1h-207v1q31 170 138.5 263.5
t272.5 93.5q187 0 290.5 -99t103.5 -279v-47q0 -102 -59 -177.5t-167 -110.5q119 -24 184.5 -110t65.5 -219v-47q0 -191 -109 -296t-308 -105z" />
    <glyph glyph-name="four" unicode="4" horiz-adv-x="1165" 
d="M130 223v177l488 1053h210l-476 -1041h713v-189h-935zM757 -1v856h199v-856h-199z" />
    <glyph glyph-name="five" unicode="5" horiz-adv-x="1115" 
d="M556 -18q-166 0 -272.5 95.5t-133.5 269.5v1h204v-1q10 -80 63 -124.5t139 -44.5q98 0 151.5 65.5t53.5 184.5v125q0 119 -53.5 184t-151.5 65q-53 0 -102 -30t-86 -84h-186v766h741v-194h-537v-327q38 31 85 48t96 17q190 0 294 -116.5t104 -328.5v-125
q0 -213 -107 -329.5t-302 -116.5z" />
    <glyph glyph-name="six" unicode="6" horiz-adv-x="1051" 
d="M515 -18q-188 0 -291.5 115.5t-103.5 326.5v1q0 94 26.5 199t74.5 204l316 626h220l-371 -725l1 36q52 99 185 99q171 0 265 -113.5t94 -320.5v-1q0 -213 -109 -330t-307 -117zM515 178q102 0 157 61t55 173v1q0 122 -55 188.5t-157 66.5q-91 0 -141 -67t-50 -189v-1
q0 -113 50 -173t141 -60z" />
    <glyph glyph-name="seven" unicode="7" horiz-adv-x="1031" 
d="M901 1454v-182l-376 -1272h-217l376 1260h-370v-209h-204v403h791z" />
    <glyph glyph-name="eight" unicode="8" horiz-adv-x="1152" 
d="M576 -18q-133 0 -232 50t-154 141t-55 213v27q0 109 54.5 205t145.5 145q-77 42 -123.5 121.5t-46.5 167.5v38q0 172 112.5 277t298.5 105t298.5 -105t112.5 -277v-38q0 -90 -47.5 -169t-125.5 -120q92 -49 147.5 -145t55.5 -205v-27q0 -122 -55 -213t-154 -141t-232 -50
zM576 178q107 0 172.5 61t65.5 162v17q0 101 -65.5 162.5t-172.5 61.5t-172.5 -61.5t-65.5 -163.5v-18q0 -100 65.5 -160.5t172.5 -60.5zM576 838q93 0 150 59t57 156v17q0 93 -57 149.5t-150 56.5t-150 -56.5t-57 -150.5v-18q0 -96 57 -154.5t150 -58.5z" />
    <glyph glyph-name="nine" unicode="9" horiz-adv-x="1051" 
d="M526 1472q193 0 299 -118.5t106 -334.5v-1q0 -89 -26.5 -192.5t-75.5 -202.5l-310 -626h-220l366 725l-1 -36q-26 -47 -77 -68t-118 -21q-157 0 -253 116.5t-96 309.5v1q0 214 106 331t300 117zM526 1276q-97 0 -149.5 -64t-52.5 -181v-1q0 -118 52.5 -182.5t149.5 -64.5
q96 0 148.5 64.5t52.5 183.5v1q0 116 -52.5 180t-148.5 64z" />
    <glyph glyph-name="colon" unicode=":" horiz-adv-x="464" 
d="M130 0v204h204v-204h-204zM130 834v204h204v-204h-204z" />
    <glyph glyph-name="semicolon" unicode=";" horiz-adv-x="464" 
d="M130 -202v406h204v-204zM130 834v204h204v-204h-204z" />
    <glyph glyph-name="less" unicode="&#x3c;" horiz-adv-x="869" 
d="M739 842l-305 -176h-364l669 409v-233zM739 491v-235l-669 410h364z" />
    <glyph glyph-name="equal" unicode="=" horiz-adv-x="940" 
d="M140 732v194h670v-194h-670zM140 406v194h670v-194h-670z" />
    <glyph glyph-name="greater" unicode="&#x3e;" horiz-adv-x="879" 
d="M140 842v233l669 -409h-364zM140 491l305 175h364l-669 -410v235z" />
    <glyph glyph-name="question" unicode="?" horiz-adv-x="884" 
d="M300 373q0 122 29 208.5t72 151.5t85.5 120t71.5 112.5t29 130.5v1q0 87 -44.5 135t-124.5 48q-81 0 -125.5 -59.5t-45.5 -168.5v-1h-207v1q7 199 105.5 308t270.5 109q180 0 279 -97.5t99 -275.5v-1q0 -95 -29.5 -162t-72.5 -122t-86 -113.5t-72.5 -135.5t-29.5 -189
h-204zM291 0v204h204v-204h-204z" />
    <glyph glyph-name="at" unicode="@" horiz-adv-x="1823" 
d="M864 -15q-351 0 -351 448v172q0 448 399 448q398 0 398 -449v-323l-146 -58q-39 -238 -300 -238zM910 169q206 0 206 256v191q0 253 -206 253q-203 0 -203 -254v-190q0 -256 203 -256zM915 -382q-765 0 -765 744v136v136q6 806 765 806q374 0 566 -201.5t192 -604.5v-157
v-155q0 -178 -74 -257.5t-207 -79.5q-290 0 -290 314l208 6q0 -146 89 -146q47 0 68.5 34t21.5 109v165v167q0 316 -146 474t-428 158q-575 0 -581 -632v-135v-137q0 -565 581 -565h298v-179h-298z" />
    <glyph glyph-name="A" unicode="A" horiz-adv-x="1326" 
d="M40 0l536 1454h174l536 -1454h-220l-403 1173l-403 -1173h-220zM287 319v194h765v-194h-765z" />
    <glyph glyph-name="B" unicode="B" horiz-adv-x="1307" 
d="M300 0v189h394q162 0 229.5 62t67.5 163v3q0 108 -57.5 172.5t-189.5 64.5h-444v184h444q228 0 228 210q0 217 -256 217h-416v189h453q215 0 320 -107t105 -287q0 -106 -63 -198t-202 -117q135 -20 209.5 -119.5t74.5 -226.5v-3q0 -178 -115.5 -287t-311.5 -109h-470z
M180 0v1454h203v-1454h-203z" />
    <glyph glyph-name="C" unicode="C" horiz-adv-x="1267" 
d="M656 -15q-152 0 -266 67.5t-177 189.5t-63 285v399q0 164 63 286t177 189.5t266 67.5q126 0 230.5 -54t175 -151t95.5 -227v0h-209v0q-19 70 -63.5 122.5t-104.5 81.5t-124 29q-134 0 -215.5 -94.5t-81.5 -249.5v-399q0 -155 81.5 -249t215.5 -94q95 0 179 55t113 158v0
h209v0q-25 -124 -96 -216.5t-175 -144t-230 -51.5z" />
    <glyph glyph-name="D" unicode="D" horiz-adv-x="1344" 
d="M318 0v194h329q161 0 249.5 83.5t88.5 235.5v428q0 152 -88.5 235.5t-249.5 83.5h-329v194h323q264 0 408.5 -136.5t144.5 -384.5v-412q0 -248 -145 -384.5t-409 -136.5h-322zM180 0v1454h204v-1454h-204z" />
    <glyph glyph-name="E" unicode="E" horiz-adv-x="1224" 
d="M180 0v1454h204v-1454h-204zM279 0v194h835v-194h-835zM279 625v194h725v-194h-725zM279 1260v194h835v-194h-835z" />
    <glyph glyph-name="F" unicode="F" horiz-adv-x="1145" 
d="M180 0v1454h204v-1454h-204zM280 612v194l705 1v-194zM280 1260v194h815v-194h-815z" />
    <glyph glyph-name="G" unicode="G" horiz-adv-x="1324" 
d="M670 783h504v-254q0 -164 -63.5 -286.5t-178 -190t-267.5 -67.5q-155 0 -271 63.5t-180 178.5t-64 270v429q0 164 63.5 286t177.5 189.5t268 67.5q127 0 231.5 -54t175.5 -151t96 -227h-221q-28 113 -109 173t-173 60q-136 0 -218 -94.5t-82 -249.5v-429
q0 -142 84 -227.5t222 -85.5q136 0 218 90t82 251v63l-295 1v194z" />
    <glyph glyph-name="H" unicode="H" horiz-adv-x="1390" 
d="M1006 0v1454h204v-1454h-204zM180 0v1454h204v-1454h-204zM307 619v194h807v-194h-807z" />
    <glyph glyph-name="I" unicode="I" horiz-adv-x="564" 
d="M384 1454v-1454h-204v1454h204z" />
    <glyph glyph-name="J" unicode="J" horiz-adv-x="1035" 
d="M371 -15q-101 0 -194.5 46.5t-146.5 122.5l167 120q23 -42 71 -67.5t103 -25.5q127 0 203.5 69.5t76.5 212.5v991h204v-992q0 -144 -60 -251t-169 -166.5t-255 -59.5z" />
    <glyph glyph-name="K" unicode="K" horiz-adv-x="1314" 
d="M310 332l30 301l647 821h246zM180 0v1454h204v-1454h-204zM1044 0l-462 776l161 149l551 -925h-250z" />
    <glyph glyph-name="L" unicode="L" horiz-adv-x="1174" 
d="M180 0v1454h204v-1454h-204zM282 0v194h832v-194h-832z" />
    <glyph glyph-name="M" unicode="M" horiz-adv-x="1596" 
d="M798 494l427 960h191v-1454h-199v1089l10 -64l-358 -823h-142l-358 803l10 84v-1089h-199v1454h191z" />
    <glyph glyph-name="N" unicode="N" horiz-adv-x="1434" 
d="M180 1v1453h185l711 -1114l-24 -26v1140h202v-1453h-187l-709 1097l24 26v-1123h-202z" />
    <glyph glyph-name="O" unicode="O" horiz-adv-x="1322" 
d="M661 -15q-154 0 -269 66.5t-178.5 187.5t-63.5 282v412q0 161 63.5 282t178.5 187.5t269 66.5t269 -66.5t178.5 -187.5t63.5 -282v-412q0 -161 -63.5 -282t-178.5 -187.5t-269 -66.5zM661 186q137 0 219.5 90t82.5 238v426q0 148 -82.5 238t-219.5 90t-219.5 -90
t-82.5 -238v-426q0 -148 82.5 -238t219.5 -90z" />
    <glyph glyph-name="P" unicode="P" horiz-adv-x="1260" 
d="M285 564v194h465q100 0 160.5 69t60.5 181q0 114 -60.5 183t-160.5 69h-465v194h458q131 0 229.5 -55.5t153 -156t54.5 -234.5t-54.5 -234t-153 -155t-229.5 -55h-458zM180 0v1454h204v-1454h-204z" />
    <glyph glyph-name="Q" unicode="Q" horiz-adv-x="1346" 
d="M1200 -24l-542 427l106 135l542 -426zM661 -15q-154 0 -269 66.5t-178.5 187.5t-63.5 282v412q0 161 63.5 282t178.5 187.5t269 66.5t269 -66.5t178.5 -187.5t63.5 -282v-412q0 -161 -63.5 -282t-178.5 -187.5t-269 -66.5zM661 186q137 0 219.5 90t82.5 238v426
q0 148 -82.5 238t-219.5 90t-219.5 -90t-82.5 -238v-426q0 -148 82.5 -238t219.5 -90z" />
    <glyph glyph-name="R" unicode="R" horiz-adv-x="1320" 
d="M269 615v194h536q71 0 114 62t43 164t-43 164t-114 62h-536v194h528q115 0 201 -52.5t133.5 -146.5t47.5 -221t-47.5 -221t-133.5 -146.5t-201 -52.5h-528zM180 0v1455h204v-1455h-204zM998 0l-333 660l203 46l372 -706h-242z" />
    <glyph glyph-name="S" unicode="S" horiz-adv-x="1261" 
d="M617 -15q-158 0 -289.5 45t-237.5 135v0l127 156v0q83 -72 183 -108t217 -36q158 0 245 58.5t87 165.5v1q0 83 -44 127t-115.5 65.5t-156.5 35.5q-81 15 -164.5 34t-153.5 59t-113 115.5t-43 203.5v1q0 203 135 314.5t381 111.5q117 0 229 -37.5t218 -114.5v0l-116 -162
v0q-165 122 -331 122q-149 0 -231.5 -59.5t-82.5 -168.5v-1q0 -82 48 -124.5t125.5 -63.5t166.5 -39q80 -16 160 -38.5t145.5 -65t105 -116.5t39.5 -193v-2q0 -201 -140 -311t-394 -110z" />
    <glyph glyph-name="T" unicode="T" horiz-adv-x="986" 
d="M391 0v1335h204v-1335h-204zM-20 1260v194h1026v-194h-1026z" />
    <glyph glyph-name="U" unicode="U" horiz-adv-x="1342" 
d="M670 -15q-243 0 -376.5 141.5t-133.5 399.5v928h204v-935q0 -159 80 -246t226 -87q147 0 227.5 87t80.5 246v935h204v-928q0 -258 -134 -399.5t-378 -141.5z" />
    <glyph glyph-name="V" unicode="V" horiz-adv-x="1202" 
d="M504 0l-474 1454h222l349 -1140l349 1140h222l-474 -1454h-194z" />
    <glyph glyph-name="W" unicode="W" horiz-adv-x="1734" 
d="M499 314l298 1140h140l298 -1140l257 1140h212l-355 -1454h-208l-268 1016l-280 -1016h-208l-355 1454h212z" />
    <glyph glyph-name="X" unicode="X" horiz-adv-x="1162" 
d="M913 0l-378 639l-31 50l-472 765h229l351 -592l33 -54l497 -808h-229zM20 0l506 831l365 623h229l-481 -787l-390 -667h-229z" />
    <glyph glyph-name="Y" unicode="Y" horiz-adv-x="1030" 
d="M1060 1454l-443 -863v-591h-204v591l-443 863h227l318 -656l318 656h227z" />
    <glyph glyph-name="Z" unicode="Z" horiz-adv-x="1114" 
d="M1004 1454v-176l-633 -1084h653v-194h-904v176l638 1084h-620v194h866z" />
    <glyph glyph-name="bracketleft" unicode="[" horiz-adv-x="602" 
d="M190 -326v1952h194v-1952h-194zM290 -326v184h282v-184h-282zM290 1442v184h282v-184h-282z" />
    <glyph glyph-name="backslash" unicode="\" horiz-adv-x="775" 
d="M-85 1626h195l675 -1902h-195z" />
    <glyph glyph-name="bracketright" unicode="]" horiz-adv-x="602" 
d="M218 -326v1952h194v-1952h-194zM30 -326v184h282v-184h-282zM30 1442v184h282v-184h-282z" />
    <glyph glyph-name="asciicircum" unicode="^" horiz-adv-x="1030" 
d="M686 1000l-166 254v305l400 -559h-234zM355 1000h-235l400 559v-305z" />
    <glyph glyph-name="underscore" unicode="_" horiz-adv-x="892" 
d="M30 0h832v-194h-832v194z" />
    <glyph glyph-name="grave" unicode="`" horiz-adv-x="603" 
d="M385 1188l-305 336l157 132l286 -355z" />
    <glyph glyph-name="a" unicode="a" horiz-adv-x="1090" 
d="M746 0v658q0 102 -54.5 158.5t-154.5 56.5q-130 0 -227 -72l-149 102q59 71 155.5 110.5t214.5 39.5q195 0 302 -101t107 -285v-667h-194zM492 -15q-191 0 -286.5 79t-95.5 242q0 154 87 231t263 77h295l14 -164h-308q-79 0 -119 -35.5t-40 -108.5q0 -80 53 -117.5
t159 -37.5q116 0 174 25t58 78l21 -146q-27 -42 -67 -69t-92 -40.5t-116 -13.5z" />
    <glyph glyph-name="b" unicode="b" horiz-adv-x="1114" 
d="M625 -15q-97 0 -169 46.5t-106 131.5l14 217q0 -67 24 -114t69.5 -72t110.5 -25q101 0 156.5 61.5t55.5 173.5v225q0 114 -55.5 177t-156.5 63q-65 0 -110.5 -24t-69.5 -70.5t-24 -111.5l-21 200q47 91 123 140.5t169 49.5q167 0 258 -110.5t91 -312.5v-226
q0 -200 -94 -309.5t-265 -109.5zM160 0v1454h204v-1454h-204z" />
    <glyph glyph-name="c" unicode="c" horiz-adv-x="995" 
d="M579 -15q-214 0 -331.5 118t-117.5 333v171q0 213 117.5 329.5t331.5 116.5q121 0 219.5 -43.5t156.5 -122.5l-147 -132q-91 104 -226 104q-118 0 -183 -66t-65 -186v-171q0 -128 65 -197.5t183 -69.5q137 0 226 111l147 -132q-59 -78 -157 -120.5t-219 -42.5z" />
    <glyph glyph-name="d" unicode="d" horiz-adv-x="1114" 
d="M750 0v1454h204v-1454h-204zM489 -18q-172 0 -265.5 110.5t-93.5 311.5v229q0 202 91 312.5t258 110.5q92 0 168.5 -48t123.5 -135l-21 -212q0 66 -24 112.5t-69.5 71.5t-110.5 25q-101 0 -156.5 -63t-55.5 -177v-226q0 -113 55.5 -174.5t156.5 -61.5q65 0 110.5 25.5
t69.5 73t24 115.5l14 -219q-28 -70 -96.5 -125.5t-178.5 -55.5z" />
    <glyph glyph-name="e" unicode="e" horiz-adv-x="1108" 
d="M595 -15q-217 0 -336 120.5t-119 344.5v117q0 232 114.5 359t322.5 127q196 0 303.5 -144.5t107.5 -403.5v-68h-700v164h506v0q-9 126 -65.5 197t-151.5 71q-115 0 -179 -76t-64 -215v-132q0 -129 68 -198t193 -69q131 0 232 95v0l134 -134v0q-77 -74 -173 -114.5
t-193 -40.5z" />
    <glyph glyph-name="f" unicode="f" horiz-adv-x="649" 
d="M190 0v1179q0 137 58 206t181 69h170v-194h-146q-31 0 -45 -23.5t-14 -55.5v-1181h-204zM80 864v174h519v-174h-519z" />
    <glyph glyph-name="g" unicode="g" horiz-adv-x="1104" 
d="M508 -422q-117 0 -209.5 43t-143.5 123l138 125q83 -115 212 -115q117 0 181 64.5t64 182.5v1037h204v-1007q0 -216 -116.5 -334.5t-329.5 -118.5zM489 -18q-172 0 -265.5 110.5t-93.5 311.5v229q0 202 91 312.5t258 110.5q92 0 168.5 -48t123.5 -135l-21 -212
q0 66 -24 112.5t-69.5 71.5t-110.5 25q-101 0 -156.5 -63t-55.5 -177v-226q0 -113 55.5 -174.5t156.5 -61.5q65 0 110.5 25.5t69.5 73t24 115.5l14 -219q-28 -70 -96.5 -125.5t-178.5 -55.5z" />
    <glyph glyph-name="h" unicode="h" horiz-adv-x="1144" 
d="M160 0v1454h204v-1454h-204zM790 0v632q0 110 -57 170t-160 60q-100 0 -154.5 -52t-54.5 -147l-21 200q48 92 125.5 142.5t171.5 50.5q169 0 261.5 -110.5t92.5 -312.5v-633h-204z" />
    <glyph glyph-name="i" unicode="i" horiz-adv-x="514" 
d="M160 1250v204h204v-204h-204zM160 0v1038h204v-1038h-204z" />
    <glyph glyph-name="j" unicode="j" horiz-adv-x="549" 
d="M20 -422v194h114q28 0 43.5 21t15.5 58v1187h204v-1185q0 -131 -63.5 -203t-179.5 -72h-134zM191 1250v204h208v-204h-208z" />
    <glyph glyph-name="k" unicode="k" horiz-adv-x="1083" 
d="M235 152l13 242l534 644h240zM160 0v1454h204v-1454h-204zM851 0l-362 599l131 136l453 -735h-222z" />
    <glyph glyph-name="l" unicode="l" horiz-adv-x="593" 
d="M364 1454v-1181q0 -37 16.5 -58t46.5 -21h96v-194h-120q-115 0 -179 72t-64 203v1179h204z" />
    <glyph glyph-name="m" unicode="m" horiz-adv-x="1754" 
d="M160 0v1038h204v-1038h-204zM780 0v629q0 109 -54 169.5t-153 60.5q-100 0 -154.5 -53t-54.5 -149l-21 200q48 94 125.5 145t171.5 51q164 0 254 -110.5t90 -312.5v-630h-204zM1400 0v629q0 109 -57 169.5t-160 60.5q-95 0 -147 -58t-52 -164l-41 200q49 103 129.5 159.5
t177.5 56.5q169 0 261.5 -110.5t92.5 -312.5v-630h-204z" />
    <glyph glyph-name="n" unicode="n" horiz-adv-x="1144" 
d="M160 0v1038h204v-1038h-204zM790 0v629q0 109 -57 169.5t-160 60.5q-100 0 -154.5 -53t-54.5 -149l-21 200q48 94 125.5 145t171.5 51q169 0 261.5 -110.5t92.5 -312.5v-630h-204z" />
    <glyph glyph-name="o" unicode="o" horiz-adv-x="1116" 
d="M558 -15q-204 0 -316 118.5t-112 333.5v169q0 213 112 330t316 117t316 -117t112 -330v-172q0 -214 -112 -331.5t-316 -117.5zM557 179q107 0 166 66.5t59 188.5v172q0 121 -59 187t-166 66t-165 -66t-58 -187v-172q0 -122 58 -188.5t165 -66.5z" />
    <glyph glyph-name="p" unicode="p" horiz-adv-x="1114" 
d="M160 -422v1460h204v-1460h-204zM625 -15q-97 0 -169 46.5t-106 131.5l14 217q0 -67 24 -114t69.5 -72t110.5 -25q101 0 156.5 61.5t55.5 173.5v225q0 114 -55.5 177t-156.5 63q-65 0 -110.5 -24t-69.5 -70.5t-24 -111.5l-21 200q47 91 123 140.5t169 49.5
q167 0 258 -110.5t91 -312.5v-226q0 -200 -94 -309.5t-265 -109.5z" />
    <glyph glyph-name="q" unicode="q" horiz-adv-x="1104" 
d="M750 -422v1460h204v-1460h-204zM489 -18q-172 0 -265.5 110.5t-93.5 311.5v229q0 202 91 312.5t258 110.5q92 0 168.5 -48t123.5 -135l-21 -212q0 66 -24 112.5t-69.5 71.5t-110.5 25q-101 0 -156.5 -63t-55.5 -177v-226q0 -113 55.5 -174.5t156.5 -61.5q65 0 110.5 25.5
t69.5 73t24 115.5l14 -219q-28 -70 -96.5 -125.5t-178.5 -55.5z" />
    <glyph glyph-name="r" unicode="r" horiz-adv-x="874" 
d="M160 0v1038h204v-1038h-204zM731 792q-55 67 -163 67q-98 0 -151 -53.5t-53 -148.5l-21 200q47 92 123.5 144t168.5 52q142 0 229 -81z" />
    <glyph glyph-name="s" unicode="s" horiz-adv-x="992" 
d="M477 -15q-132 0 -239.5 40.5t-192.5 121.5l121 149q164 -128 321 -128q126 0 189 37.5t63 112.5q0 58 -40.5 82t-106.5 31t-140 13q-63 4 -125 15t-113 38.5t-81.5 81.5t-30.5 145q0 165 103.5 247t311.5 82q116 0 218.5 -33.5t192.5 -100.5l-123 -149q-145 100 -284 100
q-113 0 -169 -35.5t-56 -106.5q0 -48 36 -68.5t95 -26.5t127 -10q65 -4 131.5 -14.5t122.5 -40.5t90 -89t34 -161q0 -167 -113.5 -250t-341.5 -83z" />
    <glyph glyph-name="t" unicode="t" horiz-adv-x="668" 
d="M430 0q-128 0 -185.5 71t-57.5 204v1065h204v-1067q0 -37 15 -58t44 -21h98v-194h-118zM80 854v184h468v-184h-468z" />
    <glyph glyph-name="u" unicode="u" horiz-adv-x="1139" 
d="M786 0v1038h203v-1038h-203zM364 1038v-631q0 -109 55.5 -168.5t156.5 -59.5q100 0 155 53.5t55 150.5l14 -217q-28 -70 -98 -125.5t-183 -55.5q-172 0 -265.5 110.5t-93.5 311.5v631h204z" />
    <glyph glyph-name="v" unicode="v" horiz-adv-x="1024" 
d="M518 297l253 741h213l-389 -1038h-154l-391 1038h213z" />
    <glyph glyph-name="w" unicode="w" horiz-adv-x="1584" 
d="M548 0h-160l-318 1038h206l201 -741l276 741h109l266 -741l190 741h206l-318 -1038h-160l-246 714z" />
    <glyph glyph-name="x" unicode="x" horiz-adv-x="999" 
d="M743 0l-310 472l-382 566h227l298 -465l393 -573h-226zM35 0l392 573l98 -188l-264 -385h-226zM585 478l-86 192l227 368h227z" />
    <glyph glyph-name="y" unicode="y" horiz-adv-x="989" 
d="M761 1038h208l-442 -1281q-43 -105 -110 -147.5t-189 -42.5h-41v196h41q57 0 90.5 23t58.5 79zM464 -85l-414 1123h208l319 -902z" />
    <glyph glyph-name="z" unicode="z" horiz-adv-x="1013" 
d="M876 1038v-172l-499 -677h526v-189h-773v176l512 673h-498v189h732z" />
    <glyph glyph-name="braceleft" unicode="{" horiz-adv-x="738" 
d="M140 745q178 0 276 -93.5t98 -264.5v-420q0 -79 48 -122.5t136 -43.5v-194q-185 0 -286.5 99.5t-101.5 281.5v410q0 73 -44.5 113t-125.5 40v194zM140 551v194q81 0 125.5 40t44.5 113v409q0 182 101.5 282t286.5 100v-194q-88 0 -136 -43t-48 -122v-433
q0 -165 -98 -255.5t-276 -90.5z" />
    <glyph glyph-name="bar" unicode="|" horiz-adv-x="564" 
d="M384 1626v-1798h-204v1798h204z" />
    <glyph glyph-name="braceright" unicode="}" horiz-adv-x="738" 
d="M598 745v-194q-81 0 -125.5 -40t-44.5 -113v-410q0 -182 -101.5 -281.5t-286.5 -99.5v194q88 0 136 43.5t48 122.5v420q0 171 98 264.5t276 93.5zM598 551q-178 0 -276 90.5t-98 255.5v433q0 79 -48 122t-136 43v194q185 0 286.5 -100t101.5 -282v-409q0 -73 44.5 -113
t125.5 -40v-194z" />
    <glyph glyph-name="asciitilde" unicode="~" horiz-adv-x="1052" 
d="M719 520q-59 0 -104 18t-83 40q-40 24 -75 44.5t-69 20.5q-70 0 -70 -109v-11h-178v25q0 288 204 288q71 0 123 -25t93 -51q31 -19 58.5 -33t55.5 -14q70 0 70 117v10h178v-24q0 -296 -203 -296z" />
    <glyph glyph-name="exclamdown" unicode="&#xa1;" horiz-adv-x="464" 
d="M130 665h204v-1081h-204v1081zM130 1038v-204h204v204h-204z" />
    <glyph glyph-name="cent" unicode="&#xa2;" horiz-adv-x="955" 
d="M443 -177v235h206v-235h-206zM443 948v267h206v-267h-206zM559 -15q-204 0 -316.5 118t-112.5 333v171q0 213 112.5 329.5t316.5 116.5q115 0 208 -43.5t148 -122.5l-147 -132q-40 49 -94 76.5t-112 27.5q-109 0 -168.5 -66t-59.5 -186v-171q0 -128 59.5 -197.5
t168.5 -69.5q125 0 206 111l147 -132q-55 -78 -148.5 -120.5t-207.5 -42.5z" />
    <glyph glyph-name="sterling" unicode="&#xa3;" horiz-adv-x="1272" 
d="M157 194q74 0 111.5 43t37.5 131v671q0 205 118.5 317.5t333.5 112.5q206 0 320 -113t114 -319v-13h-204v13q0 113 -63 175.5t-177 62.5t-176 -62t-62 -174v-671q0 -120 -88.5 -180t-264.5 -60v66zM1192 194v-194h-1042v194h1042zM172 703h773v-154h-773v154z" />
    <glyph glyph-name="currency" unicode="&#xa4;" horiz-adv-x="1178" 
d="M589 290q-194 -3 -300.5 107.5t-106.5 308.5t106.5 307t300.5 109t300.5 -108.5t106.5 -309.5q0 -197 -105 -304t-302 -110zM588 466q105 0 162.5 62.5t57.5 175.5q0 116 -58 179t-162 63t-161 -63t-57 -179q0 -113 57 -175.5t161 -62.5zM252 214l-152 152l185 185
l149 -155zM277 863l-177 177l152 152l190 -190zM926 214l-203 203l160 143l195 -194zM878 840l-134 170l182 182l152 -152z" />
    <glyph glyph-name="yen" unicode="&#xa5;" horiz-adv-x="1030" 
d="M173 388v120h684v-120h-684zM173 148v120h684v-120h-684zM1060 1454l-443 -863v-591h-204v591l-443 863h227l318 -656l318 656h227z" />
    <glyph glyph-name="brokenbar" unicode="&#xa6;" horiz-adv-x="564" 
d="M384 517v-689h-204v689h204zM180 915v711h204v-711h-204z" />
    <glyph glyph-name="section" unicode="&#xa7;" horiz-adv-x="1180" 
d="M807 270l-155 155q106 3 165 39t59 100q0 72 -33.5 111t-89.5 58t-123 31q-75 13 -154 28t-146 49.5t-108.5 105t-41.5 193.5q0 157 108.5 243t306.5 86q110 0 217.5 -35t193.5 -99l-136 -156q-68 46 -139 71t-132 25q-103 0 -159 -34.5t-56 -96.5q0 -76 48.5 -110.5
t125 -50t161.5 -32.5q67 -13 131 -35.5t116 -64t83 -110.5t31 -177q0 -114 -70.5 -189t-202.5 -105zM555 -206q-125 0 -238.5 37t-193.5 105l123 157q77 -50 160.5 -77.5t158.5 -27.5q115 0 178 36.5t63 102.5q0 64 -47.5 94.5t-123 44.5t-160.5 28q-69 12 -135.5 30.5
t-121 53.5t-86.5 94t-32 151q0 148 91 230.5t259 95.5l126 -177q-30 6 -57 6q-103 0 -159 -37t-56 -114q0 -54 31 -84.5t83 -46.5t115 -26q77 -12 160.5 -26t155.5 -45.5t116.5 -95.5t44.5 -176q0 -159 -119 -246t-336 -87z" />
    <glyph glyph-name="dieresis" unicode="&#xa8;" horiz-adv-x="794" 
d="M80 1429h214v-214h-214v214zM500 1429h214v-214h-214v214z" />
    <glyph glyph-name="copyright" unicode="&#xa9;" horiz-adv-x="1430" 
d="M715 339q-289 0 -447 161.5t-158 456.5q0 294 158 455.5t447 161.5t447 -161.5t158 -455.5q0 -295 -158 -456.5t-447 -161.5zM715 503q210 0 325.5 118.5t115.5 335.5q0 221 -115.5 342t-325.5 121t-325.5 -121t-115.5 -342q0 -217 115.5 -335.5t325.5 -118.5zM737 631
q-145 0 -224.5 82.5t-79.5 231.5v36q0 148 79.5 229.5t224.5 81.5t233 -102l-93 -124q-34 30 -67 45.5t-72 15.5q-64 0 -98.5 -38.5t-34.5 -107.5v-36q0 -74 34.5 -114.5t98.5 -40.5q42 0 75.5 18.5t72.5 55.5l94 -123q-45 -53 -105.5 -81.5t-137.5 -28.5z" />
    <glyph glyph-name="ordfeminine" unicode="&#xaa;" horiz-adv-x="705" 
d="M465 831v396q0 45 -28 69t-74 24q-43 0 -66.5 -10.5t-52.5 -38.5l-116 81q44 58 100 83.5t138 25.5q116 0 182.5 -55.5t66.5 -168.5v-406h-150zM316 824q-103 0 -159.5 50t-56.5 142q0 88 56 137t157 49h169l6 -126h-159q-74 0 -74 -67q0 -62 93 -62q56 0 86.5 21.5
t30.5 61.5l23 -125q-48 -81 -172 -81z" />
    <glyph glyph-name="guillemotleft" unicode="&#xab;" horiz-adv-x="1169" 
d="M505 520l319 358h235l-319 -358h-235zM419 163l-319 357h235l319 -357h-235zM100 520l319 358h235l-319 -358h-235zM824 163l-319 357h235l319 -357h-235z" />
    <glyph glyph-name="logicalnot" unicode="&#xac;" horiz-adv-x="1070" 
d="M140 666v194h800v-194h-800zM940 792v-387h-204v387h204z" />
    <glyph glyph-name="uni00AD" unicode="&#xad;" horiz-adv-x="982" 
d="M160 618h672v-194h-672v194z" />
    <glyph glyph-name="registered" unicode="&#xae;" horiz-adv-x="1430" 
d="M715 339q-289 0 -447 161.5t-158 456.5q0 294 158 455.5t447 161.5t447 -161.5t158 -455.5q0 -295 -158 -456.5t-447 -161.5zM475 648v623h151v-623h-151zM831 649l-118 243l127 66l159 -309h-168zM715 503q210 0 325.5 118.5t115.5 335.5q0 221 -115.5 342t-325.5 121
t-325.5 -121t-115.5 -342q0 -217 115.5 -335.5t325.5 -118.5zM569 836v134h189q33 0 53.5 21t20.5 62t-21 61.5t-53 20.5h-189v136h185q114 0 171.5 -61.5t57.5 -156.5t-58.5 -156t-170.5 -61h-185z" />
    <glyph glyph-name="macron" unicode="&#xaf;" horiz-adv-x="890" 
d="M80 1415h730v-200h-730v200z" />
    <glyph glyph-name="degree" unicode="&#xb0;" horiz-adv-x="746" 
d="M373 873q-141 0 -217 79t-76 219q0 141 76 219.5t217 78.5t217 -78.5t76 -220.5q0 -140 -77 -218.5t-216 -78.5zM372 1032q59 0 92 36.5t33 104.5q0 65 -33 100.5t-92 35.5t-91 -35.5t-32 -102.5q0 -139 123 -139z" />
    <glyph glyph-name="plusminus" unicode="&#xb1;" horiz-adv-x="1082" 
d="M140 817h812v-184h-812v184zM648 1076v-732h-204v732h204zM140 448h812v-184h-812v184z" />
    <glyph glyph-name="uni00B2" unicode="&#xb2;" horiz-adv-x="640" 
d="M121 831v141l135 117q80 68 103 102.5t23 76.5v0q0 52 -51 52q-56 0 -67 -70v0h-164v0q7 106 66.5 158.5t157.5 52.5q113 0 169.5 -48t56.5 -143v-1q0 -53 -31 -98.5t-102 -115.5l-77 -75h210v-149h-429z" />
    <glyph glyph-name="uni00B3" unicode="&#xb3;" horiz-adv-x="688" 
d="M350 824q-124 0 -187 52.5t-63 158.5v0h160v0q0 -38 22 -57t66 -19q76 0 76 64v-1q0 68 -100 68h-28v116h28q90 0 90 70v-3q0 52 -65 52q-77 0 -77 -70v0h-162v0q0 103 60.5 154.5t179.5 51.5t178.5 -42.5t59.5 -128.5v-2q0 -104 -126 -140q136 -19 136 -143v0
q0 -91 -62 -136t-186 -45z" />
    <glyph glyph-name="acute" unicode="&#xb4;" horiz-adv-x="603" 
d="M218 1188l-138 113l286 355l157 -132z" />
    <glyph glyph-name="paragraph" unicode="&#xb6;" horiz-adv-x="1412" 
d="M528 469q-134 0 -235 64t-157 175t-56 253q0 143 55.5 254t156 175t236.5 64h265v-985h-265zM638 -236v1690h204v-1690h-204zM1006 -236v1690h204v-1690h-204zM706 1260v194h646v-194h-646z" />
    <glyph glyph-name="periodcentered" unicode="&#xb7;" horiz-adv-x="424" 
d="M110 425v204h204v-204h-204z" />
    <glyph glyph-name="cedilla" unicode="&#xb8;" horiz-adv-x="582" 
d="M245 -422q-100 0 -165 18l42 140q48 -14 95 -14q109 0 109 51q0 25 -36.5 37t-109.5 12l87 116q118 0 176.5 -44.5t58.5 -134.5q0 -91 -64 -136t-193 -45zM164 61h166v-241l-166 2v239z" />
    <glyph glyph-name="uni00B9" unicode="&#xb9;" horiz-adv-x="497" 
d="M407 1454v-623h-167v439l-140 -84v183l152 85h155z" />
    <glyph glyph-name="ordmasculine" unicode="&#xba;" horiz-adv-x="700" 
d="M355 824q-123 0 -189 69t-66 191v117q0 123 66 191.5t189 68.5t189 -68.5t66 -192.5v-116q0 -123 -66.5 -191.5t-188.5 -68.5zM354 983q43 0 66 28t23 78v110q0 49 -23 76t-66 27q-87 0 -87 -105v-108q0 -106 87 -106z" />
    <glyph glyph-name="guillemotright" unicode="&#xbb;" horiz-adv-x="1169" 
d="M834 520l-319 358h235l319 -358h-235zM110 163l319 357h235l-319 -357h-235zM429 520l-319 358h235l319 -358h-235zM515 163l319 357h235l-319 -357h-235z" />
    <glyph glyph-name="onequarter" unicode="&#xbc;" horiz-adv-x="1501" 
d="M220 0l790 1454h179l-790 -1454h-179zM873 82v134l167 407h165l-160 -407h306v-134h-478zM1161 0v329h140v-329h-140zM457 1454v-623h-167v439l-140 -84v183l152 85h155z" />
    <glyph glyph-name="onehalf" unicode="&#xbd;" horiz-adv-x="1489" 
d="M220 0l790 1454h179l-790 -1454h-179zM457 1454v-623h-167v439l-140 -84v183l152 85h155zM910 0v141l135 117q79 68 102.5 102.5t23.5 76.5v0q0 52 -51 52q-56 0 -67 -70v0h-164v0q7 106 67 158.5t157 52.5q113 0 169.5 -48t56.5 -143v-1q0 -52 -31 -98t-102 -116
l-77 -75h210v-149h-429z" />
    <glyph glyph-name="threequarters" unicode="&#xbe;" horiz-adv-x="1541" 
d="M321 0l790 1454h179l-790 -1454h-179zM913 82v134l167 407h165l-160 -407h306v-134h-478zM1201 0v329h140v-329h-140zM400 824q-124 0 -187 52.5t-63 158.5v0h160v0q0 -38 22 -57t66 -19q76 0 76 64v-1q0 68 -100 68h-28v116h28q90 0 90 70v-3q0 52 -65 52q-77 0 -77 -70
v0h-162v0q0 103 60.5 154.5t179.5 51.5t178.5 -42.5t59.5 -128.5v-2q0 -104 -126 -140q136 -19 136 -143v0q0 -91 -62 -136t-186 -45z" />
    <glyph glyph-name="questiondown" unicode="&#xbf;" horiz-adv-x="884" 
d="M468 -422q-180 0 -279 97.5t-99 275.5v1q0 95 29.5 162t72.5 122t86 113.5t72.5 135.5t29.5 189h204q0 -122 -29 -208.5t-72 -151.5t-85.5 -120t-71.5 -112.5t-29 -130.5v-1q0 -87 44.5 -135t124.5 -48q81 0 125.5 59.5t45.5 168.5v1h207v-1q-7 -199 -105.5 -308
t-270.5 -109zM593 1047v-204h-204v204h204z" />
    <glyph glyph-name="Agrave" unicode="&#xc0;" horiz-adv-x="1326" 
d="M40 0l536 1454h174l536 -1454h-220l-403 1173l-403 -1173h-220zM287 319v194h765v-194h-765zM639 1544l-305 226l152 147l286 -245z" />
    <glyph glyph-name="Aacute" unicode="&#xc1;" horiz-adv-x="1326" 
d="M40 0l536 1454h174l536 -1454h-220l-403 1173l-403 -1173h-220zM287 319v194h765v-194h-765zM682 1544l-133 128l286 245l152 -147z" />
    <glyph glyph-name="Acircumflex" unicode="&#xc2;" horiz-adv-x="1326" 
d="M40 0l536 1454h174l536 -1454h-220l-403 1173l-403 -1173h-220zM287 319v194h765v-194h-765zM660 1916l324 -244l-129 -120l-195 150l-195 -150l-129 120z" />
    <glyph glyph-name="Atilde" unicode="&#xc3;" horiz-adv-x="1326" 
d="M40 0l536 1454h174l536 -1454h-220l-403 1173l-403 -1173h-220zM287 319v194h765v-194h-765zM847 1558q-52 0 -93.5 12t-76.5 28q-47 22 -85.5 43t-77.5 21q-70 0 -70 -80v-21h-168v25q0 259 204 259q65 0 113.5 -18t88.5 -38q35 -18 66.5 -33t63.5 -15q70 0 70 87v20
h168v-24q0 -266 -203 -266z" />
    <glyph glyph-name="Adieresis" unicode="&#xc4;" horiz-adv-x="1326" 
d="M40 0l536 1454h174l536 -1454h-220l-403 1173l-403 -1173h-220zM287 319v194h765v-194h-765zM346 1787h214v-214h-214v214zM766 1787h214v-214h-214v214z" />
    <glyph glyph-name="Aring" unicode="&#xc5;" horiz-adv-x="1208" 
d="M663 1422q-118 0 -181.5 60t-63.5 171q0 115 63.5 178t181.5 63t181.5 -64t63.5 -177q0 -111 -64 -171t-181 -60zM663 1562q44 0 68.5 25.5t24.5 69.5q0 46 -24 72t-69 26t-69 -25.5t-24 -72.5q0 -44 24 -69.5t69 -25.5zM40 0l536 1454h174l536 -1454h-220l-403 1173
l-403 -1173h-220zM287 319v194h765v-194h-765z" />
    <glyph glyph-name="AE" unicode="&#xc6;" horiz-adv-x="2000" 
d="M0 0l776 1454h221l-770 -1454h-227zM355 317v194h705v-194h-705zM956 0v1454h204v-1454h-204zM1055 0v194h835v-194h-835zM1055 625v194h725v-194h-725zM1055 1260v194h835v-194h-835z" />
    <glyph glyph-name="Ccedilla" unicode="&#xc7;" horiz-adv-x="1267" 
d="M656 -15q-152 0 -266 67.5t-177 189.5t-63 285v399q0 164 63 286t177 189.5t266 67.5q126 0 230.5 -54t175 -151t95.5 -227v0h-209v0q-19 70 -63.5 122.5t-104.5 81.5t-124 29q-134 0 -215.5 -94.5t-81.5 -249.5v-399q0 -155 81.5 -249t215.5 -94q95 0 179 55t113 158v0
h209v0q-25 -124 -96 -216.5t-175 -144t-230 -51.5zM656 -422q-100 0 -165 18l42 140q48 -14 95 -14q109 0 109 51q0 25 -36.5 37t-109.5 12l87 116q118 0 176.5 -44.5t58.5 -134.5q0 -91 -64 -136t-193 -45zM575 61h166v-241l-166 2v239z" />
    <glyph glyph-name="Egrave" unicode="&#xc8;" horiz-adv-x="1224" 
d="M180 0v1454h204v-1454h-204zM279 0v194h835v-194h-835zM279 625v194h725v-194h-725zM279 1260v194h835v-194h-835zM641 1544l-305 226l152 147l286 -245z" />
    <glyph glyph-name="Eacute" unicode="&#xc9;" horiz-adv-x="1224" 
d="M180 0v1454h204v-1454h-204zM279 0v194h835v-194h-835zM279 625v194h725v-194h-725zM279 1260v194h835v-194h-835zM684 1544l-133 128l286 245l152 -147z" />
    <glyph glyph-name="Ecircumflex" unicode="&#xca;" horiz-adv-x="1224" 
d="M180 0v1454h204v-1454h-204zM279 0v194h835v-194h-835zM279 625v194h725v-194h-725zM279 1260v194h835v-194h-835zM662 1916l324 -244l-129 -120l-195 150l-195 -150l-129 120z" />
    <glyph glyph-name="Edieresis" unicode="&#xcb;" horiz-adv-x="1224" 
d="M180 0v1454h204v-1454h-204zM279 0v194h835v-194h-835zM279 625v194h725v-194h-725zM279 1260v194h835v-194h-835zM348 1787h214v-214h-214v214zM768 1787h214v-214h-214v214z" />
    <glyph glyph-name="Igrave" unicode="&#xcc;" horiz-adv-x="564" 
d="M384 1454v-1454h-204v1454h204zM253 1544l-305 226l152 147l286 -245z" />
    <glyph glyph-name="Iacute" unicode="&#xcd;" horiz-adv-x="564" 
d="M384 1454v-1454h-204v1454h204zM296 1544l-133 128l286 245l152 -147z" />
    <glyph glyph-name="Icircumflex" unicode="&#xce;" horiz-adv-x="564" 
d="M384 1454v-1454h-204v1454h204zM274 1916l324 -244l-129 -120l-195 150l-195 -150l-129 120z" />
    <glyph glyph-name="Idieresis" unicode="&#xcf;" horiz-adv-x="564" 
d="M384 1454v-1454h-204v1454h204zM-40 1787h214v-214h-214v214zM380 1787h214v-214h-214v214z" />
    <glyph glyph-name="Eth" unicode="&#xd0;" horiz-adv-x="1344" 
d="M318 0v194h329q161 0 249.5 83.5t88.5 235.5v428q0 152 -88.5 235.5t-249.5 83.5h-329v194h323q264 0 408.5 -136.5t144.5 -384.5v-412q0 -248 -145 -384.5t-409 -136.5h-322zM180 0v1454h204v-1454h-204zM31 814h670v-174h-670v174z" />
    <glyph glyph-name="Ntilde" unicode="&#xd1;" horiz-adv-x="1434" 
d="M180 1v1453h185l711 -1114l-24 -26v1140h202v-1453h-187l-709 1097l24 26v-1123h-202zM916 1558q-52 0 -93.5 12t-76.5 28q-47 22 -85.5 43t-77.5 21q-70 0 -70 -80v-21h-168v25q0 259 204 259q65 0 113.5 -18t88.5 -38q35 -18 66.5 -33t63.5 -15q70 0 70 87v20h168v-24
q0 -266 -203 -266z" />
    <glyph glyph-name="Ograve" unicode="&#xd2;" horiz-adv-x="1322" 
d="M661 -15q-154 0 -269 66.5t-178.5 187.5t-63.5 282v412q0 161 63.5 282t178.5 187.5t269 66.5t269 -66.5t178.5 -187.5t63.5 -282v-412q0 -161 -63.5 -282t-178.5 -187.5t-269 -66.5zM661 186q137 0 219.5 90t82.5 238v426q0 148 -82.5 238t-219.5 90t-219.5 -90
t-82.5 -238v-426q0 -148 82.5 -238t219.5 -90zM637 1544l-305 226l152 147l286 -245z" />
    <glyph glyph-name="Oacute" unicode="&#xd3;" horiz-adv-x="1322" 
d="M661 -15q-154 0 -269 66.5t-178.5 187.5t-63.5 282v412q0 161 63.5 282t178.5 187.5t269 66.5t269 -66.5t178.5 -187.5t63.5 -282v-412q0 -161 -63.5 -282t-178.5 -187.5t-269 -66.5zM661 186q137 0 219.5 90t82.5 238v426q0 148 -82.5 238t-219.5 90t-219.5 -90
t-82.5 -238v-426q0 -148 82.5 -238t219.5 -90zM680 1544l-133 128l286 245l152 -147z" />
    <glyph glyph-name="Ocircumflex" unicode="&#xd4;" horiz-adv-x="1322" 
d="M661 -15q-154 0 -269 66.5t-178.5 187.5t-63.5 282v412q0 161 63.5 282t178.5 187.5t269 66.5t269 -66.5t178.5 -187.5t63.5 -282v-412q0 -161 -63.5 -282t-178.5 -187.5t-269 -66.5zM661 186q137 0 219.5 90t82.5 238v426q0 148 -82.5 238t-219.5 90t-219.5 -90
t-82.5 -238v-426q0 -148 82.5 -238t219.5 -90zM658 1916l324 -244l-129 -120l-195 150l-195 -150l-129 120z" />
    <glyph glyph-name="Otilde" unicode="&#xd5;" horiz-adv-x="1322" 
d="M661 -15q-154 0 -269 66.5t-178.5 187.5t-63.5 282v412q0 161 63.5 282t178.5 187.5t269 66.5t269 -66.5t178.5 -187.5t63.5 -282v-412q0 -161 -63.5 -282t-178.5 -187.5t-269 -66.5zM661 186q137 0 219.5 90t82.5 238v426q0 148 -82.5 238t-219.5 90t-219.5 -90
t-82.5 -238v-426q0 -148 82.5 -238t219.5 -90zM845 1558q-52 0 -93.5 12t-76.5 28q-47 22 -85.5 43t-77.5 21q-70 0 -70 -80v-21h-168v25q0 259 204 259q65 0 113.5 -18t88.5 -38q35 -18 66.5 -33t63.5 -15q70 0 70 87v20h168v-24q0 -266 -203 -266z" />
    <glyph glyph-name="Odieresis" unicode="&#xd6;" horiz-adv-x="1322" 
d="M661 -15q-154 0 -269 66.5t-178.5 187.5t-63.5 282v412q0 161 63.5 282t178.5 187.5t269 66.5t269 -66.5t178.5 -187.5t63.5 -282v-412q0 -161 -63.5 -282t-178.5 -187.5t-269 -66.5zM661 186q137 0 219.5 90t82.5 238v426q0 148 -82.5 238t-219.5 90t-219.5 -90
t-82.5 -238v-426q0 -148 82.5 -238t219.5 -90zM344 1787h214v-214h-214v214zM764 1787h214v-214h-214v214z" />
    <glyph glyph-name="multiply" unicode="&#xd7;" horiz-adv-x="1031" 
d="M283 273l-142 142l618 642l142 -136zM769 283l-629 638l132 132l629 -638z" />
    <glyph glyph-name="Oslash" unicode="&#xd8;" horiz-adv-x="1322" 
d="M188 -131l809 1728h154l-808 -1728h-155zM661 -15q-154 0 -269 66.5t-178.5 187.5t-63.5 282v412q0 161 63.5 282t178.5 187.5t269 66.5t269 -66.5t178.5 -187.5t63.5 -282v-412q0 -161 -63.5 -282t-178.5 -187.5t-269 -66.5zM661 186q137 0 219.5 90t82.5 238v426
q0 148 -82.5 238t-219.5 90t-219.5 -90t-82.5 -238v-426q0 -148 82.5 -238t219.5 -90z" />
    <glyph glyph-name="Ugrave" unicode="&#xd9;" horiz-adv-x="1342" 
d="M670 -15q-243 0 -376.5 141.5t-133.5 399.5v928h204v-935q0 -159 80 -246t226 -87q147 0 227.5 87t80.5 246v935h204v-928q0 -258 -134 -399.5t-378 -141.5zM646 1544l-305 226l152 147l286 -245z" />
    <glyph glyph-name="Uacute" unicode="&#xda;" horiz-adv-x="1342" 
d="M670 -15q-243 0 -376.5 141.5t-133.5 399.5v928h204v-935q0 -159 80 -246t226 -87q147 0 227.5 87t80.5 246v935h204v-928q0 -258 -134 -399.5t-378 -141.5zM689 1544l-133 128l286 245l152 -147z" />
    <glyph glyph-name="Ucircumflex" unicode="&#xdb;" horiz-adv-x="1342" 
d="M670 -15q-243 0 -376.5 141.5t-133.5 399.5v928h204v-935q0 -159 80 -246t226 -87q147 0 227.5 87t80.5 246v935h204v-928q0 -258 -134 -399.5t-378 -141.5zM667 1916l324 -244l-129 -120l-195 150l-195 -150l-129 120z" />
    <glyph glyph-name="Udieresis" unicode="&#xdc;" horiz-adv-x="1342" 
d="M670 -15q-243 0 -376.5 141.5t-133.5 399.5v928h204v-935q0 -159 80 -246t226 -87q147 0 227.5 87t80.5 246v935h204v-928q0 -258 -134 -399.5t-378 -141.5zM353 1787h214v-214h-214v214zM773 1787h214v-214h-214v214z" />
    <glyph glyph-name="Yacute" unicode="&#xdd;" horiz-adv-x="1030" 
d="M1060 1454l-443 -863v-591h-204v591l-443 863h227l318 -656l318 656h227zM534 1544l-133 128l286 245l152 -147z" />
    <glyph glyph-name="Thorn" unicode="&#xde;" horiz-adv-x="1260" 
d="M285 304v193h465q106 0 163.5 65.5t57.5 185.5t-57.5 186t-163.5 66h-465v194h458q139 0 236.5 -52.5t149 -152t51.5 -241.5q0 -141 -51.5 -240.5t-149 -151.5t-236.5 -52h-458zM180 0v1454h204v-1454h-204z" />
    <glyph glyph-name="germandbls" unicode="&#xdf;" horiz-adv-x="1147" 
d="M160 0v1030q0 209 110.5 324t312.5 115q193 0 298.5 -93.5t105.5 -262.5v-1q0 -92 -47.5 -151.5t-133.5 -77.5q86 -17 133.5 -75t47.5 -146v-430q0 -118 -80 -182.5t-226 -64.5h-96v194h96q49 0 75.5 25t26.5 70v413q0 45 -26.5 70t-75.5 25h-96v194h96q49 0 75.5 34
t26.5 96v1q0 80 -50.5 124t-142.5 44q-108 0 -167 -66t-59 -187v-1022h-204z" />
    <glyph glyph-name="agrave" unicode="&#xe0;" horiz-adv-x="1090" 
d="M746 0v658q0 102 -54.5 158.5t-154.5 56.5q-130 0 -227 -72l-149 102q59 71 155.5 110.5t214.5 39.5q195 0 302 -101t107 -285v-667h-194zM492 -15q-191 0 -286.5 79t-95.5 242q0 154 87 231t263 77h295l14 -164h-308q-79 0 -119 -35.5t-40 -108.5q0 -80 53 -117.5
t159 -37.5q116 0 174 25t58 78l21 -146q-27 -42 -67 -69t-92 -40.5t-116 -13.5zM516 1188l-305 336l157 132l286 -355z" />
    <glyph glyph-name="aacute" unicode="&#xe1;" horiz-adv-x="1090" 
d="M746 0v658q0 102 -54.5 158.5t-154.5 56.5q-130 0 -227 -72l-149 102q59 71 155.5 110.5t214.5 39.5q195 0 302 -101t107 -285v-667h-194zM492 -15q-191 0 -286.5 79t-95.5 242q0 154 87 231t263 77h295l14 -164h-308q-79 0 -119 -35.5t-40 -108.5q0 -80 53 -117.5
t159 -37.5q116 0 174 25t58 78l21 -146q-27 -42 -67 -69t-92 -40.5t-116 -13.5zM559 1188l-138 113l286 355l157 -132z" />
    <glyph glyph-name="acircumflex" unicode="&#xe2;" horiz-adv-x="1090" 
d="M746 0v658q0 102 -54.5 158.5t-154.5 56.5q-130 0 -227 -72l-149 102q59 71 155.5 110.5t214.5 39.5q195 0 302 -101t107 -285v-667h-194zM492 -15q-191 0 -286.5 79t-95.5 242q0 154 87 231t263 77h295l14 -164h-308q-79 0 -119 -35.5t-40 -108.5q0 -80 53 -117.5
t159 -37.5q116 0 174 25t58 78l21 -146q-27 -42 -67 -69t-92 -40.5t-116 -13.5zM540 1607l324 -304l-124 -115l-200 190l-200 -190l-124 115z" />
    <glyph glyph-name="atilde" unicode="&#xe3;" horiz-adv-x="1090" 
d="M746 0v658q0 102 -54.5 158.5t-154.5 56.5q-130 0 -227 -72l-149 102q59 71 155.5 110.5t214.5 39.5q195 0 302 -101t107 -285v-667h-194zM492 -15q-191 0 -286.5 79t-95.5 242q0 154 87 231t263 77h295l14 -164h-308q-79 0 -119 -35.5t-40 -108.5q0 -80 53 -117.5
t159 -37.5q116 0 174 25t58 78l21 -146q-27 -42 -67 -69t-92 -40.5t-116 -13.5zM684 1202q-49 0 -85.5 19t-67.5 42q-28 19 -52 35.5t-48 16.5q-70 0 -70 -89v-21h-168v25q0 268 204 268q53 0 91.5 -22t70.5 -45q24 -18 46 -32t44 -14q70 0 70 97v20h168v-24
q0 -276 -203 -276z" />
    <glyph glyph-name="adieresis" unicode="&#xe4;" horiz-adv-x="1090" 
d="M746 0v658q0 102 -54.5 158.5t-154.5 56.5q-130 0 -227 -72l-149 102q59 71 155.5 110.5t214.5 39.5q195 0 302 -101t107 -285v-667h-194zM492 -15q-191 0 -286.5 79t-95.5 242q0 154 87 231t263 77h295l14 -164h-308q-79 0 -119 -35.5t-40 -108.5q0 -80 53 -117.5
t159 -37.5q116 0 174 25t58 78l21 -146q-27 -42 -67 -69t-92 -40.5t-116 -13.5zM223 1429h214v-214h-214v214zM643 1429h214v-214h-214v214z" />
    <glyph glyph-name="aring" unicode="&#xe5;" horiz-adv-x="1090" 
d="M746 0v658q0 102 -54.5 158.5t-154.5 56.5q-130 0 -227 -72l-149 102q59 71 155.5 110.5t214.5 39.5q195 0 302 -101t107 -285v-667h-194zM492 -15q-191 0 -286.5 79t-95.5 242q0 154 87 231t263 77h295l14 -164h-308q-79 0 -119 -35.5t-40 -108.5q0 -80 53 -117.5
t159 -37.5q116 0 174 25t58 78l21 -146q-27 -42 -67 -69t-92 -40.5t-116 -13.5zM540 1201q-118 0 -181.5 60t-63.5 171q0 116 63.5 178.5t181.5 62.5t181.5 -64t63.5 -177q0 -111 -64 -171t-181 -60zM540 1341q44 0 68.5 25.5t24.5 69.5q0 46 -24 72t-69 26t-69 -26t-24 -72
q0 -44 24 -69.5t69 -25.5z" />
    <glyph glyph-name="ae" unicode="&#xe6;" horiz-adv-x="1708" 
d="M756 485v173q0 102 -57.5 158.5t-161.5 56.5q-127 0 -224 -72l-152 102q59 71 155.5 110.5t214.5 39.5q157 0 243 -88t86 -248v-232h-104zM462 -15q-352 0 -352 321q0 303 350 303h365l14 -159h-378q-79 0 -119 -35.5t-40 -108.5q0 -145 182 -145q94 0 153 44.5
t86.5 112.5t27.5 141h104l-1 -251q-59 -114 -157 -168.5t-235 -54.5zM1195 -15q-179 0 -277 114.5t-98 325.5v187q0 210 94 325.5t263 115.5q196 0 303.5 -145.5t107.5 -407.5v-50h-710v159h516v0q-9 125 -65.5 194.5t-151.5 69.5q-120 0 -186.5 -78.5t-66.5 -221.5v-132
q0 -135 71 -207.5t200 -72.5q137 0 244 98v0l122 -119v0q-77 -74 -173 -114.5t-193 -40.5z" />
    <glyph glyph-name="ccedilla" unicode="&#xe7;" horiz-adv-x="995" 
d="M579 -15q-214 0 -331.5 118t-117.5 333v171q0 213 117.5 329.5t331.5 116.5q121 0 219.5 -43.5t156.5 -122.5l-147 -132q-91 104 -226 104q-118 0 -183 -66t-65 -186v-171q0 -128 65 -197.5t183 -69.5q137 0 226 111l147 -132q-59 -78 -157 -120.5t-219 -42.5zM527 -422
q-100 0 -165 18l42 140q48 -14 95 -14q109 0 109 51q0 25 -36.5 37t-109.5 12l87 116q118 0 176.5 -44.5t58.5 -134.5q0 -91 -64 -136t-193 -45zM446 61h166v-241l-166 2v239z" />
    <glyph glyph-name="egrave" unicode="&#xe8;" horiz-adv-x="1108" 
d="M595 -15q-217 0 -336 120.5t-119 344.5v117q0 232 114.5 359t322.5 127q196 0 303.5 -144.5t107.5 -403.5v-68h-700v164h506v0q-9 126 -65.5 197t-151.5 71q-115 0 -179 -76t-64 -215v-132q0 -129 68 -198t193 -69q131 0 232 95v0l134 -134v0q-77 -74 -173 -114.5
t-193 -40.5zM546 1188l-305 336l157 132l286 -355z" />
    <glyph glyph-name="eacute" unicode="&#xe9;" horiz-adv-x="1108" 
d="M595 -15q-217 0 -336 120.5t-119 344.5v117q0 232 114.5 359t322.5 127q196 0 303.5 -144.5t107.5 -403.5v-68h-700v164h506v0q-9 126 -65.5 197t-151.5 71q-115 0 -179 -76t-64 -215v-132q0 -129 68 -198t193 -69q131 0 232 95v0l134 -134v0q-77 -74 -173 -114.5
t-193 -40.5zM589 1188l-138 113l286 355l157 -132z" />
    <glyph glyph-name="ecircumflex" unicode="&#xea;" horiz-adv-x="1108" 
d="M595 -15q-217 0 -336 120.5t-119 344.5v117q0 232 114.5 359t322.5 127q196 0 303.5 -144.5t107.5 -403.5v-68h-700v164h506v0q-9 126 -65.5 197t-151.5 71q-115 0 -179 -76t-64 -215v-132q0 -129 68 -198t193 -69q131 0 232 95v0l134 -134v0q-77 -74 -173 -114.5
t-193 -40.5zM570 1607l324 -304l-124 -115l-200 190l-200 -190l-124 115z" />
    <glyph glyph-name="edieresis" unicode="&#xeb;" horiz-adv-x="1108" 
d="M595 -15q-217 0 -336 120.5t-119 344.5v117q0 232 114.5 359t322.5 127q196 0 303.5 -144.5t107.5 -403.5v-68h-700v164h506v0q-9 126 -65.5 197t-151.5 71q-115 0 -179 -76t-64 -215v-132q0 -129 68 -198t193 -69q131 0 232 95v0l134 -134v0q-77 -74 -173 -114.5
t-193 -40.5zM253 1429h214v-214h-214v214zM673 1429h214v-214h-214v214z" />
    <glyph glyph-name="igrave" unicode="&#xec;" horiz-adv-x="514" 
d="M160 0v1038h204v-1038h-204zM238 1188l-305 336l157 132l286 -355z" />
    <glyph glyph-name="iacute" unicode="&#xed;" horiz-adv-x="514" 
d="M160 0v1038h204v-1038h-204zM281 1188l-138 113l286 355l157 -132z" />
    <glyph glyph-name="icircumflex" unicode="&#xee;" horiz-adv-x="514" 
d="M160 0v1038h204v-1038h-204zM262 1607l324 -304l-124 -115l-200 190l-200 -190l-124 115z" />
    <glyph glyph-name="idieresis" unicode="&#xef;" horiz-adv-x="514" 
d="M160 0v1038h204v-1038h-204zM-55 1429h214v-214h-214v214zM365 1429h214v-214h-214v214z" />
    <glyph glyph-name="eth" unicode="&#xf0;" horiz-adv-x="1102" 
d="M952 610l-167 78q2 125 -55 264t-174 293l-159 209h228l117 -164q105 -148 157.5 -317t52.5 -363zM810 781l142 -171v-180q0 -209 -108 -327t-305 -118q-194 0 -301.5 116.5t-107.5 328.5v183q0 206 91 323t256 117q115 0 191.5 -70t141.5 -202zM758 430v180
q0 259 -219 259q-215 0 -215 -256v-183q0 -261 215 -261q113 0 166 66t53 195zM245 1328l659 122l29 -154l-659 -122z" />
    <glyph glyph-name="ntilde" unicode="&#xf1;" horiz-adv-x="1144" 
d="M160 0v1038h204v-1038h-204zM790 0v629q0 109 -57 169.5t-160 60.5q-100 0 -154.5 -53t-54.5 -149l-21 200q48 94 125.5 145t171.5 51q169 0 261.5 -110.5t92.5 -312.5v-630h-204zM716 1202q-49 0 -85.5 19t-67.5 42q-28 19 -52 35.5t-48 16.5q-70 0 -70 -89v-21h-168v25
q0 268 204 268q53 0 91.5 -22t70.5 -45q24 -18 46 -32t44 -14q70 0 70 97v20h168v-24q0 -276 -203 -276z" />
    <glyph glyph-name="ograve" unicode="&#xf2;" horiz-adv-x="1116" 
d="M558 -15q-204 0 -316 118.5t-112 333.5v169q0 213 112 330t316 117t316 -117t112 -330v-172q0 -214 -112 -331.5t-316 -117.5zM557 179q107 0 166 66.5t59 188.5v172q0 121 -59 187t-166 66t-165 -66t-58 -187v-172q0 -122 58 -188.5t165 -66.5zM534 1188l-305 336
l157 132l286 -355z" />
    <glyph glyph-name="oacute" unicode="&#xf3;" horiz-adv-x="1116" 
d="M558 -15q-204 0 -316 118.5t-112 333.5v169q0 213 112 330t316 117t316 -117t112 -330v-172q0 -214 -112 -331.5t-316 -117.5zM557 179q107 0 166 66.5t59 188.5v172q0 121 -59 187t-166 66t-165 -66t-58 -187v-172q0 -122 58 -188.5t165 -66.5zM577 1188l-138 113
l286 355l157 -132z" />
    <glyph glyph-name="ocircumflex" unicode="&#xf4;" horiz-adv-x="1116" 
d="M558 -15q-204 0 -316 118.5t-112 333.5v169q0 213 112 330t316 117t316 -117t112 -330v-172q0 -214 -112 -331.5t-316 -117.5zM557 179q107 0 166 66.5t59 188.5v172q0 121 -59 187t-166 66t-165 -66t-58 -187v-172q0 -122 58 -188.5t165 -66.5zM558 1607l324 -304
l-124 -115l-200 190l-200 -190l-124 115z" />
    <glyph glyph-name="otilde" unicode="&#xf5;" horiz-adv-x="1116" 
d="M558 -15q-204 0 -316 118.5t-112 333.5v169q0 213 112 330t316 117t316 -117t112 -330v-172q0 -214 -112 -331.5t-316 -117.5zM557 179q107 0 166 66.5t59 188.5v172q0 121 -59 187t-166 66t-165 -66t-58 -187v-172q0 -122 58 -188.5t165 -66.5zM702 1202q-49 0 -85.5 19
t-67.5 42q-28 19 -52 35.5t-48 16.5q-70 0 -70 -89v-21h-168v25q0 268 204 268q53 0 91.5 -22t70.5 -45q24 -18 46 -32t44 -14q70 0 70 97v20h168v-24q0 -276 -203 -276z" />
    <glyph glyph-name="odieresis" unicode="&#xf6;" horiz-adv-x="1116" 
d="M558 -15q-204 0 -316 118.5t-112 333.5v169q0 213 112 330t316 117t316 -117t112 -330v-172q0 -214 -112 -331.5t-316 -117.5zM557 179q107 0 166 66.5t59 188.5v172q0 121 -59 187t-166 66t-165 -66t-58 -187v-172q0 -122 58 -188.5t165 -66.5zM241 1429h214v-214h-214
v214zM661 1429h214v-214h-214v214z" />
    <glyph glyph-name="divide" unicode="&#xf7;" horiz-adv-x="988" 
d="M140 572v194h718v-194h-718zM405 864v204h204v-204h-204zM405 270v204h204v-204h-204z" />
    <glyph glyph-name="oslash" unicode="&#xf8;" horiz-adv-x="1116" 
d="M211 -142l576 1322h139l-576 -1322h-139zM558 -15q-204 0 -316 118.5t-112 333.5v169q0 213 112 330t316 117t316 -117t112 -330v-172q0 -214 -112 -331.5t-316 -117.5zM557 179q107 0 166 66.5t59 188.5v172q0 121 -59 187t-166 66t-165 -66t-58 -187v-172
q0 -122 58 -188.5t165 -66.5z" />
    <glyph glyph-name="ugrave" unicode="&#xf9;" horiz-adv-x="1139" 
d="M786 0v1038h203v-1038h-203zM364 1038v-631q0 -109 55.5 -168.5t156.5 -59.5q100 0 155 53.5t55 150.5l14 -217q-28 -70 -98 -125.5t-183 -55.5q-172 0 -265.5 110.5t-93.5 311.5v631h204zM546 1188l-305 336l157 132l286 -355z" />
    <glyph glyph-name="uacute" unicode="&#xfa;" horiz-adv-x="1139" 
d="M786 0v1038h203v-1038h-203zM364 1038v-631q0 -109 55.5 -168.5t156.5 -59.5q100 0 155 53.5t55 150.5l14 -217q-28 -70 -98 -125.5t-183 -55.5q-172 0 -265.5 110.5t-93.5 311.5v631h204zM589 1188l-138 113l286 355l157 -132z" />
    <glyph glyph-name="ucircumflex" unicode="&#xfb;" horiz-adv-x="1139" 
d="M786 0v1038h203v-1038h-203zM364 1038v-631q0 -109 55.5 -168.5t156.5 -59.5q100 0 155 53.5t55 150.5l14 -217q-28 -70 -98 -125.5t-183 -55.5q-172 0 -265.5 110.5t-93.5 311.5v631h204zM570 1607l324 -304l-124 -115l-200 190l-200 -190l-124 115z" />
    <glyph glyph-name="udieresis" unicode="&#xfc;" horiz-adv-x="1139" 
d="M786 0v1038h203v-1038h-203zM364 1038v-631q0 -109 55.5 -168.5t156.5 -59.5q100 0 155 53.5t55 150.5l14 -217q-28 -70 -98 -125.5t-183 -55.5q-172 0 -265.5 110.5t-93.5 311.5v631h204zM253 1429h214v-214h-214v214zM673 1429h214v-214h-214v214z" />
    <glyph glyph-name="yacute" unicode="&#xfd;" horiz-adv-x="989" 
d="M761 1038h208l-442 -1281q-43 -105 -110 -147.5t-189 -42.5h-41v196h41q57 0 90.5 23t58.5 79zM464 -85l-414 1123h208l319 -902zM539 1188l-138 113l286 355l157 -132z" />
    <glyph glyph-name="thorn" unicode="&#xfe;" horiz-adv-x="1114" 
d="M160 -422v1876h204v-1876h-204zM625 -15q-97 0 -169 46.5t-106 131.5l14 217q0 -67 24 -114t69.5 -72t110.5 -25q101 0 156.5 61.5t55.5 173.5v225q0 114 -55.5 177t-156.5 63q-65 0 -110.5 -24t-69.5 -70.5t-24 -111.5l-21 200q47 91 123 140.5t169 49.5
q167 0 258 -110.5t91 -312.5v-226q0 -200 -94 -309.5t-265 -109.5z" />
    <glyph glyph-name="ydieresis" unicode="&#xff;" horiz-adv-x="989" 
d="M761 1038h208l-442 -1281q-43 -105 -110 -147.5t-189 -42.5h-41v196h41q57 0 90.5 23t58.5 79zM464 -85l-414 1123h208l319 -902zM203 1429h214v-214h-214v214zM623 1429h214v-214h-214v214z" />
    <glyph glyph-name="dotlessi" unicode="&#x131;" horiz-adv-x="514" 
d="M160 0v1038h204v-1038h-204z" />
    <glyph glyph-name="OE" unicode="&#x152;" horiz-adv-x="2053" 
d="M691 -15q-163 0 -284.5 66.5t-189 187.5t-67.5 282v412q0 161 67.5 282t189 187.5t284.5 66.5q147 0 243.5 -66.5t144 -187.5t47.5 -282v-412q0 -161 -47.5 -282t-144 -187.5t-243.5 -66.5zM691 186q143 0 230 90t87 238v426q0 148 -87 238t-230 90q-152 0 -244.5 -90
t-92.5 -238v-426q0 -148 92.5 -238t244.5 -90zM1009 0v1454h204v-1454h-204zM1108 0v194h835v-194h-835zM1108 625v194h725v-194h-725zM1108 1260v194h835v-194h-835z" />
    <glyph glyph-name="oe" unicode="&#x153;" horiz-adv-x="1740" 
d="M558 -15q-204 0 -316 118.5t-112 333.5v169q0 213 112 330t316 117q185 0 286.5 -117t101.5 -330v-172q0 -214 -101.5 -331.5t-286.5 -117.5zM557 169q107 0 166 69.5t59 195.5v172q0 125 -59 194t-166 69q-111 0 -172 -69t-61 -194v-172q0 -126 61 -195.5t172 -69.5z
M1227 -15q-198 0 -306.5 120.5t-108.5 344.5v117q0 232 104 359t293 127q196 0 303.5 -144.5t107.5 -403.5v-68h-690v159h506v0q-10 134 -68.5 208.5t-158.5 74.5q-120 0 -186.5 -79t-66.5 -222v-132q0 -134 71 -205.5t200 -71.5q133 0 237 95v0l129 -124v0
q-77 -74 -173 -114.5t-193 -40.5z" />
    <glyph glyph-name="Scaron" unicode="&#x160;" horiz-adv-x="1261" 
d="M617 -15q-158 0 -289.5 45t-237.5 135v0l127 156v0q83 -72 183 -108t217 -36q158 0 245 58.5t87 165.5v1q0 83 -44 127t-115.5 65.5t-156.5 35.5q-81 15 -164.5 34t-153.5 59t-113 115.5t-43 203.5v1q0 203 135 314.5t381 111.5q117 0 229 -37.5t218 -114.5v0l-116 -162
v0q-165 122 -331 122q-149 0 -231.5 -59.5t-82.5 -168.5v-1q0 -82 48 -124.5t125.5 -63.5t166.5 -39q80 -16 160 -38.5t145.5 -65t105 -116.5t39.5 -193v-2q0 -201 -140 -311t-394 -110zM638 1552l-314 244l129 120l185 -150l185 150l129 -120z" />
    <glyph glyph-name="scaron" unicode="&#x161;" horiz-adv-x="992" 
d="M477 -15q-132 0 -239.5 40.5t-192.5 121.5l121 149q164 -128 321 -128q126 0 189 37.5t63 112.5q0 58 -40.5 82t-106.5 31t-140 13q-63 4 -125 15t-113 38.5t-81.5 81.5t-30.5 145q0 165 103.5 247t311.5 82q116 0 218.5 -33.5t192.5 -100.5l-123 -149q-145 100 -284 100
q-113 0 -169 -35.5t-56 -106.5q0 -48 36 -68.5t95 -26.5t127 -10q65 -4 131.5 -14.5t122.5 -40.5t90 -89t34 -161q0 -167 -113.5 -250t-341.5 -83zM506 1188l-324 304l124 115l200 -190l200 190l124 -115z" />
    <glyph glyph-name="Ydieresis" unicode="&#x178;" horiz-adv-x="1030" 
d="M1060 1454l-443 -863v-591h-204v591l-443 863h227l318 -656l318 656h227zM198 1787h214v-214h-214v214zM618 1787h214v-214h-214v214z" />
    <glyph glyph-name="Zcaron" unicode="&#x17d;" horiz-adv-x="1114" 
d="M1004 1454v-176l-633 -1084h653v-194h-904v176l638 1084h-620v194h866zM574 1552l-314 244l129 120l185 -150l185 150l129 -120z" />
    <glyph glyph-name="zcaron" unicode="&#x17e;" horiz-adv-x="1013" 
d="M876 1038v-172l-499 -677h526v-189h-773v176l512 673h-498v189h732zM518 1188l-324 304l124 115l200 -190l200 190l124 -115z" />
    <glyph glyph-name="circumflex" unicode="&#x2c6;" horiz-adv-x="808" 
d="M404 1607l324 -304l-124 -115l-200 190l-200 -190l-124 115z" />
    <glyph glyph-name="caron" unicode="&#x2c7;" horiz-adv-x="808" 
d="M404 1188l-324 304l124 115l200 -190l200 190l124 -115z" />
    <glyph glyph-name="tilde" unicode="&#x2dc;" horiz-adv-x="854" 
d="M571 1202q-49 0 -85.5 19t-67.5 42q-28 19 -52 35.5t-48 16.5q-70 0 -70 -89v-21h-168v25q0 268 204 268q53 0 91.5 -22t70.5 -45q24 -18 46 -32t44 -14q70 0 70 97v20h168v-24q0 -276 -203 -276z" />
    <glyph glyph-name="gravecomb" unicode="&#x300;" 
d="M-48 1188l-305 336l157 132l286 -355z" />
    <glyph glyph-name="acutecomb" unicode="&#x301;" 
d="M-320 1188l-138 113l286 355l157 -132z" />
    <glyph glyph-name="uni0302" unicode="&#x302;" 
d="M-324 1607l324 -304l-124 -115l-200 190l-200 -190l-124 115z" />
    <glyph glyph-name="tildecomb" unicode="&#x303;" 
d="M-223 1202q-49 0 -85.5 19t-67.5 42q-28 19 -52 35.5t-48 16.5q-70 0 -70 -89v-21h-168v25q0 268 204 268q53 0 91.5 -22t70.5 -45q24 -18 46 -32t44 -14q70 0 70 97v20h168v-24q0 -276 -203 -276z" />
    <glyph glyph-name="uni0304" unicode="&#x304;" 
d="M-780 1415h730v-200h-730v200z" />
    <glyph glyph-name="uni0308" unicode="&#x308;" 
d="M-674 1429h214v-214h-214v214zM-254 1429h214v-214h-214v214z" />
    <glyph glyph-name="uni030A" unicode="&#x30a;" 
d="M-295 1201q-118 0 -181.5 60t-63.5 171q0 116 63.5 178.5t181.5 62.5t181.5 -64t63.5 -177q0 -111 -64 -171t-181 -60zM-295 1341q44 0 68.5 25.5t24.5 69.5q0 46 -24 72t-69 26t-69 -26t-24 -72q0 -44 24 -69.5t69 -25.5z" />
    <glyph glyph-name="uni030C" unicode="&#x30c;" 
d="M-324 1188l-324 304l124 115l200 -190l200 190l124 -115z" />
    <glyph glyph-name="uni0327" unicode="&#x327;" 
d="M-258 -422q-100 0 -165 18l42 140q48 -14 95 -14q109 0 109 51q0 25 -36.5 37t-109.5 12l87 116q118 0 176.5 -44.5t58.5 -134.5q0 -91 -64 -136t-193 -45zM-339 61h166v-241l-166 2v239z" />
    <glyph glyph-name="uni0335" unicode="&#x335;" 
d="M-720 824h670v-194h-670v194z" />
    <glyph glyph-name="uni03BC" unicode="&#x3bc;" horiz-adv-x="1149" 
d="M160 445h184l20 -725h-204v725zM786 0v1038h203v-1038h-203zM364 1038v-631q0 -109 55.5 -168.5t156.5 -59.5q100 0 155 53.5t55 150.5l14 -217q-28 -70 -98 -125.5t-183 -55.5q-172 0 -265.5 110.5t-93.5 311.5v631h204z" />
    <glyph glyph-name="endash" unicode="&#x2013;" horiz-adv-x="1142" 
d="M160 618h832v-194h-832v194z" />
    <glyph glyph-name="emdash" unicode="&#x2014;" horiz-adv-x="1753" 
d="M160 618h1443v-194h-1443v194z" />
    <glyph glyph-name="quoteleft" unicode="&#x2018;" horiz-adv-x="364" 
d="M284 1444v-406h-204v204z" />
    <glyph glyph-name="quoteright" unicode="&#x2019;" horiz-adv-x="364" 
d="M80 1048v406h204v-204z" />
    <glyph glyph-name="quotesinglbase" unicode="&#x201a;" horiz-adv-x="464" 
d="M130 -202v406h204v-204z" />
    <glyph glyph-name="quotedblleft" unicode="&#x201c;" horiz-adv-x="652" 
d="M358 1038v204l214 202v-406h-214zM80 1038v204l204 202v-406h-204z" />
    <glyph glyph-name="quotedblright" unicode="&#x201d;" horiz-adv-x="654" 
d="M370 1048v406h204v-204zM80 1048v406h204v-204z" />
    <glyph glyph-name="quotedblbase" unicode="&#x201e;" horiz-adv-x="755" 
d="M421 -202v406h204v-204zM130 -202v406h204v-204z" />
    <glyph glyph-name="dagger" unicode="&#x2020;" horiz-adv-x="754" 
d="M474 1454v-937h-194v937h194zM100 1218h554v-184h-554v184z" />
    <glyph glyph-name="daggerdbl" unicode="&#x2021;" horiz-adv-x="754" 
d="M100 885h554v-181h-554v181zM473 1454v-937h-192v937h192zM100 1268h554v-181h-554v181z" />
    <glyph glyph-name="bullet" unicode="&#x2022;" horiz-adv-x="567" 
d="M110 361v347h347v-347h-347z" />
    <glyph glyph-name="ellipsis" unicode="&#x2026;" horiz-adv-x="1194" 
d="M130 0v204h204v-204h-204zM502 0v204h204v-204h-204zM860 0v204h204v-204h-204z" />
    <glyph glyph-name="perthousand" unicode="&#x2030;" horiz-adv-x="1958" 
d="M213 0l790 1454h179l-790 -1454h-179zM1065 -15q-116 0 -179 67.5t-63 188.5v125q0 121 63 188.5t179 67.5t179 -68t63 -190v-123q0 -121 -63.5 -188.5t-178.5 -67.5zM1064 144q76 0 76 87v147q0 84 -76 84q-74 0 -74 -85v-146q0 -87 74 -87zM342 831q-116 0 -179 67.5
t-63 188.5v125q0 121 63 188.5t179 67.5t179 -68t63 -190v-123q0 -121 -63 -188.5t-179 -67.5zM341 990q76 0 76 87v147q0 84 -76 84q-74 0 -74 -85v-146q0 -87 74 -87zM1616 -9q-116 0 -179 67.5t-63 188.5v125q0 121 63 188.5t179 67.5t179 -68t63 -190v-123
q0 -122 -63 -189t-179 -67zM1615 150q76 0 76 87v147q0 84 -76 84q-74 0 -74 -85v-146q0 -87 74 -87z" />
    <glyph glyph-name="guilsinglleft" unicode="&#x2039;" horiz-adv-x="774" 
d="M100 520l319 358h245l-319 -358h-245zM419 163l-319 357h245l319 -357h-245z" />
    <glyph glyph-name="guilsinglright" unicode="&#x203a;" horiz-adv-x="774" 
d="M429 520l-319 358h245l319 -358h-245zM110 163l319 357h245l-319 -357h-245z" />
    <glyph glyph-name="uni2070" unicode="&#x2070;" horiz-adv-x="674" 
d="M342 824q-116 0 -179 67.5t-63 188.5v125q0 121 63 188.5t179 67.5t179 -68t63 -190v-123q0 -122 -63 -189t-179 -67zM341 983q76 0 76 87v147q0 84 -76 84q-74 0 -74 -85v-146q0 -87 74 -87z" />
    <glyph glyph-name="uni2074" unicode="&#x2074;" horiz-adv-x="668" 
d="M100 913v134l167 407h165l-160 -407h306v-134h-478zM388 831v329h140v-329h-140z" />
    <glyph glyph-name="Euro" unicode="&#x20ac;" horiz-adv-x="1290" 
d="M110 527v140h690v-140h-690zM110 785v140h690v-140h-690zM707 -15q-141 0 -245.5 67.5t-162.5 189.5t-58 285v399q0 164 58 286t162.5 189.5t245.5 67.5q119 0 217.5 -49t165 -137t90.5 -206v0h-216v0q-32 89 -102.5 143.5t-154.5 54.5q-119 0 -190.5 -95.5t-71.5 -253.5
v-399q0 -157 71.5 -252.5t190.5 -95.5q84 0 154.5 49t102.5 129v0h216v0q-24 -112 -91 -195.5t-165 -130t-217 -46.5z" />
    <glyph glyph-name="trademark" unicode="&#x2122;" horiz-adv-x="1357" 
d="M181 944v509h160v-509h-160zM-10 1410v157h542v-157h-542zM928 1262l169 305h150v-623h-150v374l35 46l-183 -343h-41l-182 343l34 -46v-374h-151v623h150z" />
    <glyph glyph-name="strokeshortcomb" horiz-adv-x="1468" 
d="M1288 0h-1108v1454h1108v-1454zM355 1279v-1104h758v1104h-758z" />
    <glyph glyph-name="dieresiscomb.case" 
d="M-674 1787h214v-214h-214v214zM-254 1787h214v-214h-214v214z" />
    <glyph glyph-name="gravecomb.case" 
d="M-43 1544l-305 226l152 147l286 -245z" />
    <glyph glyph-name="acutecomb.case" 
d="M-325 1544l-133 128l286 245l152 -147z" />
    <glyph glyph-name="circumflexcomb.case" 
d="M-324 1916l324 -244l-129 -120l-195 150l-195 -150l-129 120z" />
    <glyph glyph-name="caroncomb.case" 
d="M-324 1552l-314 244l129 120l185 -150l185 150l129 -120z" />
    <glyph glyph-name="ringcomb.case" 
d="M-295 1542q-118 0 -181.5 60t-63.5 171q0 115 63.5 178t181.5 63t181.5 -64t63.5 -177q0 -111 -64 -171t-181 -60zM-295 1682q44 0 68.5 25.5t24.5 69.5q0 46 -24 72t-69 26t-69 -25.5t-24 -72.5q0 -44 24 -69.5t69 -25.5z" />
    <glyph glyph-name="tildecomb.case" 
d="M-183 1558q-52 0 -93.5 12t-76.5 28q-47 22 -85.5 43t-77.5 21q-70 0 -70 -80v-21h-168v25q0 259 204 259q65 0 113.5 -18t88.5 -38q35 -18 66.5 -33t63.5 -15q70 0 70 87v20h168v-24q0 -266 -203 -266z" />
    <glyph glyph-name="macroncomb.case" 
d="M-780 1774h730v-200h-730v200z" />
    <glyph glyph-name="cedillacomb.case" 
d="M-258 -422q-100 0 -165 18l42 140q48 -14 95 -14q109 0 109 51q0 25 -36.5 37t-109.5 12l87 116q118 0 176.5 -44.5t58.5 -134.5q0 -91 -64 -136t-193 -45zM-339 61h166v-241l-166 2v239z" />
    <glyph glyph-name="strokeshortcomb.case" 
d="M-720 814h670v-174h-670v174z" />
    <glyph glyph-name="Oslash.var01" horiz-adv-x="1322" 
d="M509 133l-116 -264h-205l158 359zM837 1346l110 251h204l-158 -360zM661 -15q-154 0 -269 66.5t-178.5 187.5t-63.5 282v412q0 161 63.5 282t178.5 187.5t269 66.5t269 -66.5t178.5 -187.5t63.5 -282v-412q0 -161 -63.5 -282t-178.5 -187.5t-269 -66.5zM661 186
q137 0 219.5 90t82.5 238v426q0 148 -82.5 238t-219.5 90t-219.5 -90t-82.5 -238v-426q0 -148 82.5 -238t219.5 -90z" />
    <glyph glyph-name="oslash.var01" horiz-adv-x="1116" 
d="M462 106l-112 -248h-159l135 299zM683 949l104 231h159l-133 -294zM558 -15q-204 0 -316 118.5t-112 333.5v169q0 213 112 330t316 117t316 -117t112 -330v-172q0 -214 -112 -331.5t-316 -117.5zM557 179q107 0 166 66.5t59 188.5v172q0 121 -59 187t-166 66t-165 -66
t-58 -187v-172q0 -122 58 -188.5t165 -66.5z" />
    </font>
</defs>
</svg>
